Stránka 1 z 1

2011-03-26 Glen Hansard, Spectrum Presents, Guitar Heroes

Napsal: 17.10.2011, 21:21:29
od intercityfirm
2011-03-26
Glen Hansard
Guitar Heroes
The Metroplitan Museum of Art
New York,NY

Setlist:
unknown

Mediainfo:
Format : MPEG-4
Format profile : Base Media / Version 2
Codec ID : mp42
File size : 670 MiB
Duration : 50mn 20s
Overall bit rate : 1 859 Kbps
Encoded date : UTC 2011-06-26 21:02:12
Tagged date : UTC 2011-06-26 21:02:12
gsst : 558559
gstd : 3579500
gssd : BADC20107MH1312801825165867
gshh : o-o.preferred.prg01s01.v7.lscache2.c.youtube.com

Video
ID : 1
Format : AVC
Format/Info : Advanced Video Codec
Format profile : High@L3.1
Format settings, CABAC : Yes
Format settings, ReFrames : 1 frame
Codec ID : avc1
Codec ID/Info : Advanced Video Coding
Duration : 50mn 20s
Bit rate mode : Variable
Bit rate : 1 702 Kbps
Maximum bit rate : 5 982 Kbps
Width : 1 280 pixels
Height : 720 pixels
Display aspect ratio : 16:9
Frame rate mode : Variable
Frame rate : 29.970 fps
Minimum frame rate : 29.412 fps
Maximum frame rate : 200.000 fps
Color space : YUV
Chroma subsampling : 4:2:0
Bit depth : 8 bits
Scan type : Progressive
Bits/(Pixel*Frame) : 0.062
Stream size : 613 MiB (92%)
Tagged date : UTC 2011-06-26 21:07:51

Audio
ID : 2
Format : AAC
Format/Info : Advanced Audio Codec
Format profile : LC
Codec ID : 40
Duration : 50mn 20s
Bit rate mode : Variable
Bit rate : 151 Kbps
Maximum bit rate : 215 Kbps
Channel(s) : 2 channels
Channel positions : Front: L R
Sampling rate : 44.1 KHz
Compression mode : Lossy
Stream size : 54.4 MiB (8%)
Title : IsoMedia File Produced by Google, 5-11-2011
Encoded date : UTC 2011-06-26 21:04:51
Tagged date : UTC 2011-06-26 21:07:51

Link:
http://download.hellshare.cz/spectrum-p ... p/3813290/

„Vhodnou základnou pro manželství je oboustranné nepochopení.“ Oscar Wilde