2010-07-01 Damien Rice, Iceland Inspires, Hljómskálagsarður,

Setlisty, fotky, recenze, záznamy
Gigs archive: Setlists, photos, reviews, bootlegs

Moderátor: Admins

Odpovědět
intercityfirm
Příspěvky: 388
Registrován: 23.01.2008, 21:12:11

2010-07-01 Damien Rice, Iceland Inspires, Hljómskálagsarður,

Příspěvek od intercityfirm » 18.12.2010, 23:25:55

2010-07-01
Damien Rice
Iceland Inspires
Hljómskálagsarðurinn, Reykjavík, Iceland

Setlist:


Mediainfo:
Complete name : C:\Download\Iceland Inspires 2010 - Glen Hansard (with friends) (July 1, 2010).mp4
Format : MPEG-4
Format profile : Base Media
Codec ID : isom
File size : 104 MiB
Duration : 20mn 23s
Overall bit rate : 715 Kbps
Encoded date : UTC 2010-06-30 23:19:49
Tagged date : UTC 2010-07-01 23:19:53

Video
ID : 1
Format : AVC
Format/Info : Advanced Video Codec
Format profile : High@L3.1
Format settings, CABAC : Yes
Format settings, ReFrames : 4 frames
Codec ID : avc1
Codec ID/Info : Advanced Video Coding
Duration : 20mn 23s
Bit rate mode : Variable
Bit rate : 602 Kbps
Maximum bit rate : 1 606 Kbps
Width : 640 pixels
Height : 360 pixels
Display aspect ratio : 16:9
Frame rate mode : Constant
Frame rate : 25.000 fps
Resolution : 24 bits
Colorimetry : 4:2:0
Scan type : Progressive
Bits/(Pixel*Frame) : 0.104
Stream size : 87.8 MiB (84%)
Writing library : Vimeo Encoder
Encoded date : UTC 2010-06-30 23:19:49
Tagged date : UTC 2010-06-30 23:19:51

Audio
ID : 2
Format : AAC
Format/Info : Advanced Audio Codec
Format version : Version 4
Format profile : LC
Format settings, SBR : No
Codec ID : 40
Duration : 20mn 23s
Bit rate mode : Variable
Bit rate : 110 Kbps
Maximum bit rate : 130 Kbps
Channel(s) : 2 channels
Channel positions : L R
Sampling rate : 44.1 KHz
Resolution : 16 bits
Stream size : 16.0 MiB (15%)
Encoded date : UTC 2010-06-30 23:19:51
Tagged date : UTC 2010-06-30 23:19:51

Link:
http://download.cz.hellshare.com/damien ... 4/2087396/

Odpovědět

Kdo je online

Uživatelé prohlížející si toto fórum: Žádní registrovaní uživatelé a 1 host